Pbthal Blog

Originally Posted by pbthal /img/forum/go_quote. my subreddits. If we are to solve the greatest problems of the 21st century—we must end our elected officials’ dependencies on special interests. Facebook gives people the power to share and makes the world more open and connected. Stoned op 1:52:00 AM 451 comments: The Who - Live at Woodstock '69. Formed in 1984 by brothers Max and Igor Cavalera, the band was a major force in the thrash metal and groove metal genres during the late 1980s and early 1990s, with their later experiments drawing influence from alternative metal, world music, nu metal, hardcore punk and industrial metal. Listen to pbthal | SoundCloud is an audio platform that lets you listen to what you love and share the sounds you create. The Velvet Underground - White Light/White Heat [PBTHAL FRANKENC. Uploaded 12-11 2016, Size 1. Web Raydian | The blog. com August 30 at 10:03pm. By submitting this form, you agree to receive emails from The Jed Foundation (JED). 1988 - Robert Plant - Now And Zen [US Atlantic Vinyl FLAC][Pbthal 2012 Dec ]. torrentdownload. every studio album the best sounding vinyl rips 1978 Outlandos dAmour 1979 Reggatta De Blanc 1980 Zenyatta Mondatta 1981 Ghost in the Machine 1983 Synchronicity Outlandos dAmour ripped by AKSMAN with the following equipment: TURNTABLE: Music Hall MMF 5. Blogger makes it simple to post text, photos and video onto your personal or team blog. Thank you for this, Country Joe and the Fish are the apex of high. Ironically you can buy the "remastered" version aka "horse shit" version right here from iTunes to the right of this message. 8 GB : 1978 - Runnin' With The Devil [Radio Promo EP][darkivist]/02 - Eruption. The Rolling Stones - Some Girls (Canada Sterling) [pbthal art9] Uploaded 2019-01-10 20:21, 852. 1979 US vinyl done by pbthal with the art9 cartridge. rar - download at 4shared. dumur oldum. Free for All!. my subreddits. Raise money online - it's easy, secure & transparent!. Promo Vinyl 24-96 FLAC][Pbthal] Download:. TORRENT : UPLOADED: SIZE: SEEDS: LEECHS: Van Halen - US Festival Day 3 1983 (2-CD) ak192 by. com 2,850 views. https://www. I am only on APL and I can tell you I hate it. 1975 - Sabotage [US Vinyl 24-96 FLAC][Pbthal Answer]/03 - Symptom Of The Universe. Dear pbthal, Discovered your wonderful blog a few months a go, and found my new go-to-Beatles-stereo-collection, with which I am over the moon. Since the dark side of the moon shifts as the lunar day progresses, it's more accurate to say that the moon has a day side and a night side, just like the Earth. Bogglor has also done some VERY nice hi-res rips, as has Dr. Formed in 1984 by brothers Max and Igor Cavalera, the band was a major force in the thrash metal and groove metal genres during the late 1980s and early 1990s, with their later experiments drawing influence from alternative metal, world music, nu metal, hardcore punk and industrial metal. Taken From The “Every Record Tells A Story” Blog…Link Below Excerpt, Photo Courtesy Of Doc Keyaza! “in contrast to the general rule of record collecting that if you buy an early pressing from the country of origin of the artist, you are most likely to be nearer the source tapes, and therefore the sound ought to be better. it Pbthal Pbthal. the equipment to compare should at least try a hirez digital rip from vinyl from Dr. 113217 Album Nursery Cryme Artist Genesis External-identifier urn:mb_releasegroup_id:863a205e-07c3-3930-8561-a23045719466. r/trackers: A subreddit for discussing public & private trackers. 44 MiB, ULed by thedregs222: 0: 1: Audio. Megadeth - Post. It's what it says on other sites like what. In other cases, Riptide is good for torrents, and blogs have good shit, so long as you know where to look. every studio album the best sounding vinyl rips 1978 Outlandos dAmour 1979 Reggatta De Blanc 1980 Zenyatta Mondatta 1981 Ghost in the Machine 1983 Synchronicity Outlandos dAmour ripped by AKSMAN with the following equipment: TURNTABLE: Music Hall MMF 5. 83 MB: 0: 0: Michael Jackson - 3 Albums [24 bit FLAC] vinyl. Previously Pbthal had posted 2 versions of this album. Pbthal vinyl rip pack. I may dig them out instead of paying for digital vinyl! Seems like a money grab to me. While owning a hot stamper may be the Holy Grail in collecting the physical album, technology has made it possible to share and share the same vinyl across geographical locations. com SustaiNet is committed to offering its customers full support for all our products. The Cars - The Cars [FLAC] The Cars Live Aid 1985 by The Cars blog. Some might agree and others might disagree. The original mix for We Live for Love can be found on youtube. TORRENT : UPLOADED: SIZE: SEEDS: LEECHS: Van Halen - US Festival Day 3 1983 (2-CD) ak192 by. U2 - War 1983 (UK) 24bit 96kHz PBTHAL 2014 Vinyl LOSSLESS FLAC VA - Geffen Rarities Vol. JPop80s is self explanatory, the PBTHAL Archives are the go to for vinyl rips, MediaCafe is good if you want files off iTunes, and ProfStoned is good for rare mixes of music. Download The Traveling Wilburys Collection (3LP Rhino Box Set)(Vinyl Rip)(24 96) Torrents from Our Search Results, GET The Traveling Wilburys Collection (3LP Rhino Box Set)(Vinyl Rip)(24 96) Torrent or Magnet via Bittorrent clients. As much as I like pbthal's rips, he has very different taste in music than I do. And no flip back sleeves for the early releases seems a bit stingy. sarabandadog. 21 다음글 [락] Rammstein - This Is Rammstein (2019) Mp3 320kbps Songs [PMEDIA] 20. Direct download via magnet link. The Internet's Busiest Music Nerd. Formed in 1984 by brothers Max and Igor Cavalera, the band was a major force in the thrash metal and groove metal genres during the late 1980s and early 1990s, with their later experiments drawing influence from alternative metal, world music, nu metal, hardcore punk and industrial metal. Side A of my Celebration of the Lizard reconstruction begins with the ruckus of “Five To One”, taking the place of The Door’s usual ruckus-opener tracks. Blogger is a free blog publishing tool from Google for easily sharing your thoughts with the world. This needledrop was made by PBTHAL, he is a frequent guest at BootlegZone forums. Pbthal is definitely one of the best and most prolific rippers, IMO. flac" WAVE TRACK 01 AUDIO TITLE "Highway To Hell" INDEX 01 00:00:00 FILE "02 - Girls Got Rhythm. txt1 KBfront. Again, I for one do NOT condone illegal filesharing. Download Metallica Torrents from Our Search Results, GET Metallica Torrent or Magnet via Bittorrent clients. Promo Vinyl 24-96 FLAC][Pbthal] Download:. com information at Website Informer. Frequency 14 posts / day Blog foreignpolicy. 9 GiB, ULed by politux: 38: 9: Audio RADIOHEAD Discography (PBTHAL vinyl) FLAC. Here’s his recordings of Big Star’s first two LPs, which I’ve always thought were just a tiny bit shrill on CD. com SustaiNet is committed to offering its customers full support for all our products. paul mccartney – coming up 03. Pbthal blog. The title wasn't supposed to be an. com pbthal. Both of these are kinda hard to get. jorge ben – ponta de lanca africano (umbabarauma) 05. it Pbthal Pbthal. The Hollies always reminded me of The Beatles - interesting, inventive melodies; folky, jangly guitars; multi-layered harmonies - and that's probably why they caught my attention in the first place. [락] Slayer - Reign In Blood (German US) [PBTHAL Frankencart]. 1975 - Sabotage [US Vinyl 24-96 FLAC][Pbthal Answer]/03 - Symptom Of The Universe. He made great, high resolution recordings of vintage first pressings of classic albums. 25MB 1982 - Dire Straits - Love Over Gold (Warner 180g RI; BG; 24-96)/B1 - Industrial Disease. JPop80s is self explanatory, the PBTHAL Archives are the go to for vinyl rips, MediaCafe is good if you want files off iTunes, and ProfStoned is good for rare mixes of music. I hope this blog serves you well. 20 radio pastor riva tims incredible god stephan dohmen xing gcse science textbook aqa caloriferi ad olio elettrici revenue storm demand creation fk-130rh/sh 1 channel watch suits hi-viz helmet garage nissan st herblain unlock all levels super smash bros n64 willis island weather. For those following, back when The Unheard Music was a blog where I shared the stories of rare and unreleased music, along with download links whenever possible, I'd compiled the available Paul's Boutique demos, instrumentals and rarities and made them available for download as The Paul's Boutique Companion. Continue this thread. All of pbthal's stuff has been processed and is ready for uploading, so we started to work on another offsite resource. The day side is the side currently receiving sunlight, while the night side faces away from the sun. bir de pbthal'ın kaydına bakayım dedim. com Washington, D. it Pbthal Pbthal. Previously Pbthal had posted 2 versions of this album. Uploaded 01-28 2019, Size 840. Pbthal blog Pbthal blog. Pbthal vinyl rip pack. [락] Slayer - Reign In Blood (German US) [PBTHAL Frankencart] - 토렌트음악. kauai real estate blog lynda gill fm 105. com information at Website Informer. Geplaatst door Prof. And no flip back sleeves for the early releases seems a bit stingy. Again, I for one do NOT condone illegal filesharing. Amplitube 3 keygen download on FileTram. Pbthal blog. I have been doing this transferring since 1999 and in analog form even long before that year. Free for All!. The Beatles - Lossless - The Beatles (Stereo EP 192khz Needledrop)(Pbthal) (1970) (FLAC) The Beatles - Lossless - Beatles (U. 1 with ProJect Speedbox CARTRIDGE: Goldring 1042GX reference PHONO PREAMP: Belari VP-129 with Sylvania 12AX7WA tubes all other albums. Sammy Hagar - Three Lock Box Answer To The Diminishing Returns Sugarcube SC-2 {Technical Details} VPI Scoutmaster with dual belt driven single flywheel motor on Herbie's Tenderfeet Trans-Fi Terminator T3 Pro With Tomahawk Armwand (4N Silver Shielded Wire) Audio-Technica VM150MLX Frankencart Phoenix Engineering Eagle Phoenix Engineering RoadRunner Gingko Cloud 12A Vibration Control Platform. Suele considerarse uno de los grupos precursores del power pop. flac" WAVE TRACK 02 AUDIO TITLE "Girls Got Rhythm" INDEX 01 00:00:00 FILE "03 - Walk All Over You. pbthal archives 10+ years ago the journey began here on blogspot so what better way to celebrate than to assemble all the eras of my work in one easy to read blog. Pbthal version. From Album: Prag Tyn-Kirche Matching Comments: Xcossqcy: Sushi eshte only bananas (from) your tosser, https://speaktatiti. Pbthal - cee. The Velvet Underground - White Light/White Heat [PBTHAL FRANKENC. 8 MB: Jimi Hendrix - Axis Bold As Love (US Tricolor) [pbthal frankencart]/03 - Spanish Castle Magic. During your mastering did you have access to an RL cut or was it a target? John Davis answer (emphasis mine): Hi Stefan - 1 - I cut all the vinyl myself. Side A of my Celebration of the Lizard reconstruction begins with the ruckus of “Five To One”, taking the place of The Door’s usual ruckus-opener tracks. Any media downloaded through these links is for promotional, review, and research purposes only and should be deleted within 24 hours. More like pbthal’s Tube-Cut FLAC than a needle-drop from German vinyl, but not peaky. jump to content. Passionate about something niche? Reddit has thousands of vibrant communities with people that share your interests. Edit post Follow this blog Administration Login + Create my blog (((((BD SAJiB))))) Can Soundtracks PBTHAL 24 96 VINYL RIPCan Soundtracks PBTHAL 24 96 VINYL RIP. Blogger is a free blog publishing tool from Google for easily sharing your thoughts with the world. When Demonoid was still up, it had a growing homemade vinyl recording scene. Direct download via HTTP available as well. Durante os anos 70 conheci uma revista chamada Pop, que batizei de Pop Alemã, uma vez que era de origem germânica, eu não entendia o que estava escrito na sua grande maioria, mas foi ali que conheci os grupos que hoje publico aqui no blog. SolidTeknics News New AUSTRALIAN-Made Kickstarter! NEW 18cm & 26cm AUS-ION™ Lightning pans! From $49. David Lee Roth - Crazy From The Heat (Remastered German CD) Uploaded 03-19 2019, Size 86. A mere handful of other groups shared the Bishops' eye for tanked up, dressed down, dirty-ass R&B - Eddie & The Hot Rods, Little Bob Story, Dr Feelgood and the Hammersmith Gorillas were the closest. Mono, Analog, Notes (1) The Mexican EP (EPEM 10039) is bright and imbalanced, enough to reject it. 1988 - Robert Plant - Now And Zen [US Atlantic Vinyl FLAC][Pbthal 2012 Dec ]. So here is the archive, I will be working on this when time allows, feel free to comment and subscribe. Listen to pbthal | SoundCloud is an audio platform that lets you listen to what you love and share the sounds you create. pbthal "Pbthal's Rips". 1979 US vinyl done by pbthal with the art9 cartridge. https://www. View James Cruz's business profile as Owner and Mastering Engineer at Zeitgeist Sound Studios. The Rolling Stones - Tattoo You (RL) [24-96 PBTHAL VINYL RIP 201. rar - download at 4shared. ]/10 - When the Music's Over. [16/44] Bob Marley & The Wailers - Natty Dread Acetate - 197. Just try to keep it polite and remember: this is a non-profit blog for the love of music and good sound. Pbthal blog - ae. adolfosantoro. bir de pbthal'ın kaydına bakayım dedim. No, I don’t have a special deal worked out. Estos días voy pasando lo mejor de mi colección de CDs a formato lossless FLAC q4 1024Kbps. Ebbets (your info-link is pointing at his version). Die haben mittlerweile richtige Fangemeinden die denen "folgen" wennn mal wieder eine Seite dichtgemacht wird. Here’s his recordings of Big Star’s first two LPs, which I’ve always thought were just a tiny bit shrill on CD. Pbthal Rips is on Facebook. Also I am proud to have aksman as a partner and contributor. Welcome to my lounge. com information at Website Informer. Europe's #1 online money pot for group gifting & personal fundraising. Jane's Addiction - Nothing's Shocking (PBTHAL 24 96 VINYL RIP) Music: 1 year ago: 858 MB: 0: 0: Jane's Addiction - Strays: comment 4: Music: 2 years ago: 370 MB: 0: 0: Jane's Addiction - Nothing's Shocking (1988) Audio Fidelity HDCD AFZ 137 (2012) 320 kbps CBR MP3: Other: 1 year ago: 114 MB: 0: 0: Jane's Addiction - Nothing's Shocking (Mp3. Uploaded 01-28 2019, Size 840. As much as I like pbthal's rips, he has very different taste in music than I do. 08 MiB, ULed by Stangman1234: 0: 1: Audio. The original mix for We Live for Love can be found on youtube. txt1 KBfront. Download The Outfield - Play Deep (PBTHAL 24/96 VINYL RIP) torrent or any other torrent from Lossless category. 17 GiB, ULed by Ashja: 0: 1: Faith Hill - Deep Tracks (2016). Also, would like to thank Pbthal for his amazing work! Reply Delete. flac" WAVE TRACK 03 AUDIO TITLE "Walk All Over You" INDEX. o da 24/96. 6 MB: Jimi Hendrix - Axis Bold As Love (US Tricolor) [pbthal frankencart]/04 - Wait Until Tomorrow. jorge ben – ponta de lanca africano (umbabarauma) 05. Durante os anos 70 conheci uma revista chamada Pop, que batizei de Pop Alemã, uma vez que era de origem germânica, eu não entendia o que estava escrito na sua grande maioria, mas foi ali que conheci os grupos que hoje publico aqui no blog. You are doing the world of psychedelic music a great service with the production from your majik mind. 1 1994 (Original UK Pressing) 24bit 96kHz PBTHAL 2014 DGC Vinyl LOSSLESS FLAC Van Halen – Van Halen [Warner Bros. The Cars - The Cars (US) [pbthal art9] 1 3 767. Big Star fue una banda estadounidense de rock de la primera mitad de los 70. [락] Slayer - Reign In Blood (German US) [PBTHAL Frankencart] - 토렌트음악. 2002 Status: offline I have tried to connect to the Zone and play Age of Kings Conquerors thru ISA forever. ⭐ 현재 글 : [락] Ozzy Osbourne - Blizzard Of Ozz (UK) [PBTHAL Frankencart] - 토렌트음악 New 191010 DJ Babi - 어때? [포트비어페스타 PORT BEER FESTA 2019] 직캠. I am only on APL and I can tell you I hate it. The only two boots I have heard that are awesome are the Sir Esquire's and PBTHAL's. Posted by 4 years ago. JPop80s is self explanatory, the PBTHAL Archives are the go to for vinyl rips, MediaCafe is good if you want files off iTunes, and ProfStoned is good for rare mixes of music. Vinyl, maybe it was for the sake of removing sibilance, but the dynamics seem sucked out. 2 - Live Anthology : Tour Of America 1965 (MBE) (1970) (FLAC) The Beatles - Lossless - The Beatles (UK mono LP) (Spamalot needledrop) (1970) (FLAC). And before anyone is wondering or speculating I need to clarify something. Passionate about something niche? Reddit has thousands of vibrant communities with people that share your interests. Join Facebook to connect with Pbthal Rips and others you may know. 1979 US vinyl done by pbthal with the art9 cartridge. 16 MiB, ULed by thedregs222: 1: 0: Audio. PLEASE READ: the purpose of this website is simply to promote great music. Side A of my Celebration of the Lizard reconstruction begins with the ruckus of “Five To One”, taking the place of The Door’s usual ruckus-opener tracks. Thank you for this, Country Joe and the Fish are the apex of high. About Blog Foreign Policy is an American news publication, founded in 1970 and focused on global affairs, current events, and domestic and foreign policy. sarabandadog. No, I don’t have a special deal worked out. TrunkFest with Eddie Trunk S02E06 - NAMM (WEB-Cap 1080p x264). Snotty hard sound and somehow untypical for this genre I mean. Here’s his recordings of Big Star’s first two LPs, which I’ve always thought were just a tiny bit shrill on CD. Get a constantly updating feed of breaking news, fun stories, pics, memes, and videos just for you. 1975 - Sabotage [US Vinyl 24-96 FLAC][Pbthal Answer]/03 - Symptom Of The Universe. Posts: 3 Joined: 10. dumur oldum. 1988 - Robert Plant - Now And Zen [US Atlantic Vinyl FLAC][Pbthal 2012 Dec ]. Retired Columns & Blogs. Thanks for your visit Title: DOWNLOAD: Paramore Discography (2005 2009) [FLAC] Posted by Unknown Rating Blog 5 out of 5. 67 MB] 03 - Sludge Factory. Passionate about something niche?. March 1, 2009 at 12:58 PM. While rippers like Q and the professor strive for as close to the mastertape sound as they can, pbthal's rip reminds me that we are experiencing a vinyl, clean as he could get it, but still a vinyl, and I like both approaches. 113217 Album Nursery Cryme Artist Genesis External-identifier urn:mb_releasegroup_id:863a205e-07c3-3930-8561-a23045719466. Ironically you can buy the "remastered" version aka "horse shit" version right here from iTunes to the right of this message. gr:6969/announce : 0 : 1: 0: 1 year: udp://thetracker. [락] Slayer - Reign In Blood (German US) [PBTHAL Frankencart]. Pbthal blog Most children are fascinated by animals and often have an animal that is a particular favorite. One favourite band in my metal days were Venom, pioneers of the so-called Black Metal style, and their first two albums are excellent. It's just that PBThal has a nasty tendency of busting my quality time after time. I don't owe anybody anything, except working links. I would love to get an invite to your website. The Police - Ghost In The Machine [24-96 PBTHAL VINYL RIP 2018] Uploaded 2018-01-20 22:39, 849. Estos días voy pasando lo mejor de mi colección de CDs a formato lossless FLAC q4 1024Kbps. Pbthal-archive. Blogger: User Profile: JC. Pbthal, about the same, but even more distant, perhaps because of lower gain. flac" WAVE TRACK 01 AUDIO TITLE "Highway To Hell" INDEX 01 00:00:00 FILE "02 - Girls Got Rhythm. The u/pbthal community on Reddit. Pbthal Version - Aggiungi un posto a Mantova Pbthal Version. pirateparty. So here is the archive, I will be working on this when time allows, feel free to comment and subscribe. 6 Followers. [락] Slayer - Reign In Blood (German US) [PBTHAL Frankencart] - 토렌트음악. Soundgarden - Screaming Life (Original US EP) (PBTHAL Rip) So anyone who knows me, knows that I am a huge Soundgarden/Chris Cornell fan. rar - download at 4shared. Search for and download any torrent from the pirate bay using search query the who. "I n the year or so before punk finally emerged on the London scene, the Count Bishops were the kind of band you wished everyone could sound like - without ever guessing that very soon, they would. The Velvet Underground - White Light/White Heat [PBTHAL FRANKENC. [락] Slayer - Reign In Blood (German US) [PBTHAL Frankencart]. com search engine- Guitar Rig 4 Crack por migue_143. Hi-Rez & CD Quality downloads of long-lost MONO mixes and other curiosa, meticulously restored from the best sources. Reddit gives you the best of the internet in one place. THE BEATLES AUSTRALIAN/CANADIAN ARCHIVES AUDIOPHILE MINI LP DR. Snotty hard sound and somehow untypical for this genre I mean. Thanks in advance, Stijn. Vinyl, maybe it was for the sake of removing sibilance, but the dynamics seem sucked out. This needledrop was made by PBTHAL, he is a frequent guest at BootlegZone forums. The Rolling Stones - Some Girls (Canada Sterling) [pbthal art9] Uploaded 2019-01-10 20:21, 852. r/trackers: A subreddit for discussing public & private trackers. Jane's Addiction - Nothing's Shocking (PBTHAL 24 96 VINYL RIP) Music: 1 year ago: 858 MB: 0: 0: Jane's Addiction - Strays: comment 4: Music: 2 years ago: 370 MB: 0: 0: Jane's Addiction - Nothing's Shocking (1988) Audio Fidelity HDCD AFZ 137 (2012) 320 kbps CBR MP3: Other: 1 year ago: 114 MB: 0: 0: Jane's Addiction - Nothing's Shocking (Mp3. In other cases, Riptide is good for torrents, and blogs have good shit, so long as you know where to look. 08 MiB, ULed by Stangman1234: 0: 1: Audio. The u/pbthal community on Reddit. Stream Tracks and Playlists from pbthal on your desktop or mobile device. edit subscriptions. 6 MB: Jimi Hendrix - Axis Bold As Love (US Tricolor) [pbthal frankencart]/04 - Wait Until Tomorrow. I don't owe anybody anything, except working links. 1988 - Robert Plant - Now And Zen [US Atlantic Vinyl FLAC][Pbthal 2012 Dec ]. com Washington, D. Hi-Rez & CD Quality downloads of long-lost MONO mixes and other curiosa, meticulously restored from the best sources. o da 24/96. _____ Emergency room workers ask us to wear masks. Dear pbthal, Discovered your wonderful blog a few months a go, and found my new go-to-Beatles-stereo-collection, with which I am over the moon. Scan websites for malware, exploits and other infections with quttera detection engine to check if the site is safe to browse. Paramore - Discography (2005-2009) [FLAC] Uploaded 12-21 2012, Size 3. Direct download via magnet link. Get a constantly updating feed of breaking news, fun stories, pics, memes, and videos just for you. I see the respected vinyl ripper pbthal of vinyldoneright has just closed his blog due to a 'SWARM OF ANTI-PIRACY ACTIONS'. pl Pbthal blog. Brennan reported of this source (Capitol SHAL-12060), “The remix has the left, instrumental channel relatively louder. 8 MB: Jimi Hendrix - Axis Bold As Love (US Tricolor) [pbthal frankencart]/03 - Spanish Castle Magic. Reddit gives you the best of the internet in one place. 21 다음글 [락] Rammstein - This Is Rammstein (2019) Mp3 320kbps Songs [PMEDIA] 20. Search for and download any torrent from the pirate bay using search query van halen. Both of these are kinda hard to get. We use cookies on this website to assist with navigation and promo. [16/44] Bob Marley & The Wailers - Natty Dread Acetate - 197. Review of chess assistant::What Is an Example of a Personal Interest. l have been fighting with a new RDS (terminal server) install at a big customer for the last few months. Uploaded 01-28 02:46, Size 840. The Rolling Stones / Tattoo You / 1981 / Original US Robert Ludwig Pressing / pbthal Start Me Up 00:00 Hang Fire 03:33 Slave 05:56 Little T & A 10:51 Black L… youtube. The singles you have posted on this blog are a collector´s dream! Rock on tambler October 12, 2012 at 10:25 PM and from what I can tell, pbthal's sounds a bit. I joined when it was close to be on red or apl but man 6 months in and I can't keep any kind of ratio up. PBTHAL Bootleg Network. com PBTHAL ARCHIVES (Vinyl Done Right) 10+ years ago the journey began here on blogspot so what better way to celebrate than to assemble all the eras of my work in one easy to read blog. Blogger: User Profile: JC. Dear pbthal, Discovered your wonderful blog a few months a go, and found my new go-to-Beatles-stereo-collection, with which I am over the moon. Learn more about Matt Benoit, System Administrator, TRUSTe including contact information, career history, news and intelligence. In other cases, Riptide is good for torrents, and blogs have good shit, so long as you know where to look. Pbthal - cs. The Rolling Stones - Some Girls (Canada Sterling) [pbthal art9] Uploaded 2019-01-10 20:21, 852. Dabbe - Cin Carpmasi DVDRip (2013) Turkish Horror Movie ENG SubsDabbe - Cin Carpmasi DVDRip (2013) T Dabbe: Bir Cin Vakasi Dabbe (Dab6e) [email protected] Siccin 2 Siccn 3: Crm Ask. Hi-Rez & CD Quality downloads of long-lost MONO mixes and other curiosa, meticulously restored from the best sources. flac" WAVE TRACK 01 AUDIO TITLE "Highway To Hell" INDEX 01 00:00:00 FILE "02 - Girls Got Rhythm. I think I've grabbed some stuff from Kel bazar that I liked. The Internet's Busiest Music Nerd. 3 Cracked deb, categoriessb 1. Pbthal Rips is on Facebook. That’s not bad at all. ses boğuk, enstrümanlar cansız. I came here to ask the same question. Bruce*, Neal Smith 4:02 A4 Panic Written-By – Lilker*, Turbin*, Rosenfeld* 3:58 A5 Subjugator Written-By – Benante*, Spitz*, Lilker*, Turbin. Thanks in advance, Stijn. Hopefully someone can send me a link to the blog or any other sources would be greatly appreciated. I hope this blog serves you well. Download Rebirth 2016 HDRip XviD AC3-EVO torrent or any other torrent from Other Movies category. bir de pbthal'ın kaydına bakayım dedim. When Demonoid was still up, it had a growing homemade vinyl recording scene. Pbthal version. 32 MiB, ULed by thedregs222: 0: 1: Audio Yes - Close To The Edge [FLAC]. 25 MiB, ULed by CYBERGODSIG: 1: 0: Audio (). Issues with new PBTHAL site I haven't been able to log into the new PBTHAL site recently, anyone know what's going on? When I try 'forgot password' it says there is no user with my user name. Downloading some vinyl rips from the everythingbeatles blogspot. Reddit gives you the best of the internet in one place. By submitting this form, you agree to receive emails from The Jed Foundation (JED). So here is the archive, I will be working on this when time allows, feel free to comment and subscribe. Up until 1968, each Beatles album was given a unique mono and stereo mix, but the group always regarded the mono as primary. A blog about Cisco, Brocade/Foundry, Check Point, and ShoreTel configurations, tips, and more. 25MB 1982 - Dire Straits - Love Over Gold (Warner 180g RI; BG; 24-96)/B1 - Industrial Disease. SolidTeknics News New AUSTRALIAN-Made Kickstarter! NEW 18cm & 26cm AUS-ION™ Lightning pans! From $49. Sammy Hagar - Three Lock Box Answer To The Diminishing Returns Sugarcube SC-2 {Technical Details} VPI Scoutmaster with dual belt driven single flywheel motor on Herbie's Tenderfeet Trans-Fi Terminator T3 Pro With Tomahawk Armwand (4N Silver Shielded Wire) Audio-Technica VM150MLX Frankencart Phoenix Engineering Eagle Phoenix Engineering RoadRunner Gingko Cloud 12A Vibration Control Platform. -- May The Lord bless you and keep you. Taken From The “Every Record Tells A Story” Blog…Link Below Excerpt, Photo Courtesy Of Doc Keyaza! “in contrast to the general rule of record collecting that if you buy an early pressing from the country of origin of the artist, you are most likely to be nearer the source tapes, and therefore the sound ought to be better. You have people who share (and those of us who try to make the enjoyment of music more easy to swallow) and you have leechers that try to gain profits of anything they can get their hands on. After reading the comments, Im glad I downloaded the torrents from an uploader named PBTHAL. x264-Rapta. flac" WAVE TRACK 01 AUDIO TITLE "Highway To Hell" INDEX 01 00:00:00 FILE "02 - Girls Got Rhythm. While owning a hot stamper may be the Holy Grail in collecting the physical album, technology has made it possible to share and share the same vinyl across geographical locations. That’s not bad at all. caetano veloso – lost in the paradise. torrentdownload. It is a thoughtful. (Not to be confused with 20 Golden Greats aka Buddy Holly Lives) is so please pm me. Yes - Drama (Hybrid) [PBTHAL FRANKENCART] Uploaded 01-21 2019, Size 764. Pbthal - dh. Sou brasileira, sempre amei música e desde muito pequena compro e ouço rock. Addeddate 2013-10-23 13:47:37. So, as of today I'm going to built this thing. gif I can accomodate you on both levelsif you check my profile. Download Metallica Torrents from Our Search Results, GET Metallica Torrent or Magnet via Bittorrent clients. She has been practicing meditation from the time she was 10 years old. During your mastering did you have access to an RL cut or was it a target? John Davis answer (emphasis mine): Hi Stefan - 1 - I cut all the vinyl myself. 6 MB: Jimi Hendrix - Axis Bold As Love (US Tricolor) [pbthal frankencart]/04 - Wait Until Tomorrow. Download The Traveling Wilburys Collection (3LP Rhino Box Set)(Vinyl Rip)(24 96) Torrents from Our Search Results, GET The Traveling Wilburys Collection (3LP Rhino Box Set)(Vinyl Rip)(24 96) Torrent or Magnet via Bittorrent clients. 1979 US vinyl done by pbthal with the art9 cartridge. com search engine- Guitar Rig 4 Crack por migue_143. flac" WAVE TRACK 03 AUDIO TITLE "Walk All Over You" INDEX. Vinyl, maybe it was for the sake of removing sibilance, but the dynamics seem sucked out. I noticed when doing some EQ comparisons of the iTunes versions that Led Zeppelin II was quite close to a pbthal needledrop of the famous Bob Ludwig RL cut of Led Zeppelin II. Blogger makes it simple to post text, photos and video onto your personal or team blog. This needledrop was made by PBTHAL, he is a frequent guest at BootlegZone forums. [락] Scorpions - Lonesome Crow (German Brain) [PBTHAL Frankencart] - 토렌트음악. com/speaktatiti/blog/download-prov. Stream Tracks and Playlists from pbthal on your desktop or mobile device. PBTHAL ARCHIVES (Vinyl Done Right) 10+ years ago the journey began here on blogspot so what better way to celebrate than to assemble all the eras of my work in one easy to read blog. The official remasters are coming out on vinyl but it hasn't been announced when they will be coming out. What marketing strategies does Fulicilian use? Get traffic statistics, SEO keyword opportunities, audience insights, and competitive analytics for Fulicilian. Pepper is not from Dr. Welcome to my lounge. Muy influenciada por el pop de años 60, y muy especialmente por grupos como The Beatles, The Byrds, The Kinks, The Zombies, Badfinger, The Who, Todd Rundgren, Moby Grape, The Beach Boys y Free, la música de Big Star es un pop lírico, enérgico y a. Pbthal blog Pbthal blog. Geplaatst door Prof. Previously Pbthal had posted 2 versions of this album. l have been fighting with a new RDS (terminal server) install at a big customer for the last few months. Uploaded 07-23 2018, Size 419. The official remasters are coming out on vinyl but it hasn't been announced when they will be coming out. Also, would like to thank Pbthal for his amazing work! Reply Delete. [락] Slayer - Reign In Blood (German US) [PBTHAL Frankencart]. PLEASE READ: the purpose of this website is simply to promote great music. education picturesof Sri Lanka Sri Lanka Education. pbthal'ın kaydı ciddi manada harikulade. Facebook gives people the power to share and makes the world more open and connected. Sammy Hagar - Three Lock Box Answer To The Diminishing Returns Sugarcube SC-2 {Technical Details} VPI Scoutmaster with dual belt driven single flywheel motor on Herbie's Tenderfeet Trans-Fi Terminator T3 Pro With Tomahawk Armwand (4N Silver Shielded Wire) Audio-Technica VM150MLX Frankencart Phoenix Engineering Eagle Phoenix Engineering RoadRunner Gingko Cloud 12A Vibration Control Platform. I joined when it was close to be on red or apl but man 6 months in and I can't keep any kind of ratio up. SustaiNet - Stakeholder Information Management Software. Download Metallica Torrents from Our Search Results, GET Metallica Torrent or Magnet via Bittorrent clients. pbthal "Pbthal's Rips". Uploaded 05-23 2012, Size 133. 9 MB 1969 - The Soft Parade [US Vinyl 24-96 FLAC][Pbthal Answer]/09 - The Soft Parade. Vinyl-Blog. Uploaded 01-20 2018, Size 883. TrunkFest with Eddie Trunk S02E06 - NAMM (WEB-Cap 1080p x264). Snotty hard sound and somehow untypical for this genre I mean. Free for All!. He did rips that are amazing. We use cookies on this website to assist with navigation and promo. Downloading some vinyl rips from the everythingbeatles blogspot. Never heard of PBTHAL. Pbthal vinyl rip pack. JPop80s is self explanatory, the PBTHAL Archives are the go to for vinyl rips, MediaCafe is good if you want files off iTunes, and ProfStoned is good for rare mixes of music. gr:6969/announce : 0 : 1: 0: 1 year: udp://thetracker. jorge ben – ponta de lanca africano (umbabarauma) 05. Pbthal-archive. The u/pbthal community on Reddit. And no flip back sleeves for the early releases seems a bit stingy. Whatever she shares on her personal blog and here, on Mystical Bee, comes from reading, exploration and experience. Edit post Follow this blog Administration Login + Create my blog. David Lee Roth - Crazy From The Heat (Remastered German CD) Uploaded 03-19 2019, Size 86. Blogger makes it simple to post text, photos and video onto your personal or team blog. Muy influenciada por el pop de años 60, y muy especialmente por grupos como The Beatles, The Byrds, The Kinks, The Zombies, Badfinger, The Who, Todd Rundgren, Moby Grape, The Beach Boys y Free, la música de Big Star es un pop lírico, enérgico y a. The day side is the side currently receiving sunlight, while the night side faces away from the sun. New Classification and Region Brackets. Formed in 1984 by brothers Max and Igor Cavalera, the band was a major force in the thrash metal and groove metal genres during the late 1980s and early 1990s, with their later experiments drawing influence from alternative metal, world music, nu metal, hardcore punk and industrial metal. SD & PI pbthal 24/96 vinyl rips Pumpkins Archive. Get a constantly updating feed of breaking news, fun stories, pics, memes, and videos just for you. Pbthal - cs. Direct download via magnet link. Billy Preston - Live European Tour 1973 (Remaster 2006) Uploaded 06-28 2019, Size 198. Europe's #1 online money pot for group gifting & personal fundraising. In 1951, when the company was a Chicago-based independent, it launched its ''Olympian Series'' with the now classic recording of the Mussorgsky-Ravel ''Pictures at an Exhibition'' played by the Chicago Symphony Orchestra under Rafael Kubelik. Sepultura is a Brazilian heavy metal band from Belo Horizonte. Phibes, Jughead, Donut Duck our SST expert, Jungle Jim our radio station raider for CDs (another SST specialist), Jim H our record clerk in the store, Angstytimelord our fearless commenter/reporter 'on the scene' from the 80's to corroborate my. 7 MB Black Sabbath - Technical Ecstacy (UK) [pbthal]/01 - Back Street Kids. Previously Pbthal had posted 2 versions of this album. [16/44] Bob Marley & The Wailers - Natty Dread Acetate - 197. Soundstage Spicial - Faith Hill Joy to the World 720p. I think I've grabbed some stuff from Kel bazar that I liked. THE BEATLES AUSTRALIAN/CANADIAN ARCHIVES AUDIOPHILE MINI LP DR. Can someone PM me the PBTHAL blog? I was there about a month ago, now I can't find it. Originally Posted by pbthal /img/forum/go_quote. bir de pbthal'ın kaydına bakayım dedim. I DO however believe in sharing and making choices an option. Die haben mittlerweile richtige Fangemeinden die denen "folgen" wennn mal wieder eine Seite dichtgemacht wird. Download Live - Throwing Copper (PBTHAL 24/96 VINYL RIP) torrent or any other torrent from Lossless category. It will be huge, though, reaching 5-6TB, but damn, it will be worth it. george harrison – woman don’t you cry for me 04. com information at Website Informer. And his SWEDISH blog Below Like The Other Members Record Nerd, our neighbor blogger, Dr. [락] Slayer - Reign In Blood (German US) [PBTHAL Frankencart]. New Classification and Region Brackets. 1975 - Sabotage [US Vinyl 24-96 FLAC][Pbthal Answer]/03 - Symptom Of The Universe. It is of note that I am using the pbthal vinyl rip of the album, which is the best version of Waiting For The Sun I’ve heard by far. 2 - Live Anthology : Tour Of America 1965 (MBE) (1970) (FLAC) The Beatles - Lossless - The Beatles (UK mono LP) (Spamalot needledrop) (1970) (FLAC). Hi-Rez & CD Quality downloads of long-lost MONO mixes and other curiosa, meticulously restored from the best sources. pbthal's stuff is the best. l have been fighting with a new RDS (terminal server) install at a big customer for the last few months. edit subscriptions. The Rolling Stones - Some Girls (Canada Sterling) [pbthal art9] Uploaded 2019-01-10 20:21, 852. So here is the archive, I will be working on this when time allows, feel free to comment and subscribe. x264-Rapta. Formed in 1984 by brothers Max and Igor Cavalera, the band was a major force in the thrash metal and groove metal genres during the late 1980s and early 1990s, with their later experiments drawing influence from alternative metal, world music, nu metal, hardcore punk and industrial metal. The Rolling Stones / Tattoo You / 1981 / Original US Robert Ludwig Pressing / pbthal Start Me Up 00:00 Hang Fire 03:33 Slave 05:56 Little T & A 10:51 Black L… youtube. Thanks in advance, Stijn. Passionate about something niche?. What marketing strategies does Lossless-galaxy use? Get traffic statistics, SEO keyword opportunities, audience insights, and competitive analytics for Lossless-galaxy. You have people who share (and those of us who try to make the enjoyment of music more easy to swallow) and you have leechers that try to gain profits of anything they can get their hands on. dumur oldum. caetano veloso – lost in the paradise. Edit post Follow this blog Administration Login + Create my blog. The Beatles in mono: This is how most listeners first heard the group in the 1960s, when mono was the predominant audio format. I would love to get an invite to your website. 44 MiB, ULed by thedregs222: 0: 1: Audio. paul mccartney – coming up 03. Lee’s first duet album with Nancy Sinatra is a classic of ’60s pop. Blogger is a free blog publishing tool from Google for easily sharing your thoughts with the world. In other cases, Riptide is good for torrents, and blogs have good shit, so long as you know where to look. com PBTHAL ARCHIVES (Vinyl Done Right) 10+ years ago the journey began here on blogspot so what better way to celebrate than to assemble all the eras of my work in one easy to read blog. 1988 - Robert Plant - Now And Zen [US Atlantic Vinyl FLAC][Pbthal 2012 Dec ]. 25MB 1982 - Dire Straits - Love Over Gold (Warner 180g RI; BG; 24-96)/B1 - Industrial Disease. Geplaatst door Prof. Jane's Addiction - Nothing's Shocking (PBTHAL 24 96 VINYL RIP) Music: 1 year ago: 858 MB: 0: 0: Jane's Addiction - Strays: comment 4: Music: 2 years ago: 370 MB: 0: 0: Jane's Addiction - Nothing's Shocking (1988) Audio Fidelity HDCD AFZ 137 (2012) 320 kbps CBR MP3: Other: 1 year ago: 114 MB: 0: 0: Jane's Addiction - Nothing's Shocking (Mp3. While rippers like Q and the professor strive for as close to the mastertape sound as they can, pbthal's rip reminds me that we are experiencing a vinyl, clean as he could get it, but still a vinyl, and I like both approaches. He made great, high resolution recordings of vintage first pressings of classic albums. Pbthal - cee. 1M ⋅ Instagram Followers 122. I think I've grabbed some stuff from Kel bazar that I liked. During your mastering did you have access to an RL cut or was it a target? John Davis answer (emphasis mine): Hi Stefan - 1 - I cut all the vinyl myself. SolidTeknics News New AUSTRALIAN-Made Kickstarter! NEW 18cm & 26cm AUS-ION™ Lightning pans! From $49. U2 – War 1983 (UK) 24bit 96kHz PBTHAL 2014 Vinyl LOSSLESS FLAC VA – Geffen Rarities Vol. 08 MiB, ULed by Stangman1234: 0: 1: Audio. It will be huge, though, reaching 5-6TB, but damn, it will be worth it. I see the respected vinyl ripper pbthal of vinyldoneright has just closed his blog due to a 'SWARM OF ANTI-PIRACY ACTIONS'. [락] Scorpions - Lonesome Crow (German Brain) [PBTHAL Frankencart]. I hope this blog serves you well. Suele considerarse uno de los grupos precursores del power pop. No, I don’t have a special deal worked out. This needledrop was made by PBTHAL, he is a frequent guest at BootlegZone forums. 1 with ProJect Speedbox CARTRIDGE: Goldring 1042GX reference PHONO PREAMP: Belari VP-129 with Sylvania 12AX7WA tubes all other albums. This one isn’t offered on his site, though. Muy influenciada por el pop de años 60, y muy especialmente por grupos como The Beatles, The Byrds, The Kinks, The Zombies, Badfinger, The Who, Todd Rundgren, Moby Grape, The Beach Boys y Free, la música de Big Star es un pop lírico, enérgico y a. Direct download via HTTP available as well. 02 MiB, ULed by thedregs222: 1: 0: Video (). This is quite possibly the best sounding I've ever heard this record--beautiful definition and clarity of the instruments in the sound space. 88 MiB, ULed by thedregs222: 1: 0: Audio (). [락] Slayer - Reign In Blood (German US) [PBTHAL Frankencart] - 토렌트음악. [락] Slayer - Reign In Blood (German US) [PBTHAL Frankencart]. pl Pbthal blog. These will be legal downloads, since most of the artists have been. 17 GiB, ULed by Ashja: 0: 1: Faith Hill - Deep Tracks (2016). SustaiNet - Stakeholder Information Management Software. It is of note that I am using the pbthal vinyl rip of the album, which is the best version of Waiting For The Sun I’ve heard by far. The Doors - L. Suele considerarse uno de los grupos precursores del power pop. Durante os anos 70 conheci uma revista chamada Pop, que batizei de Pop Alemã, uma vez que era de origem germânica, eu não entendia o que estava escrito na sua grande maioria, mas foi ali que conheci os grupos que hoje publico aqui no blog. Uploaded 01-28 02:46, Size 840. Downloading some vinyl rips from the everythingbeatles blogspot. The original mix for We Live for Love can be found on youtube. Find contact's direct phone number, email address, work history, and more. [16/44] Bob Marley & The Wailers - Natty Dread Acetate - 197. Amplitube 3 keygen download on FileTram. Blogger makes it simple to post text, photos and video onto your personal or team blog. It is of note that I am using the pbthal vinyl rip of the album, which is the best version of Waiting For The Sun I’ve heard by far. And his SWEDISH blog Below Like The Other Members Record Nerd, our neighbor blogger, Dr. Side A of my Celebration of the Lizard reconstruction begins with the ruckus of “Five To One”, taking the place of The Door’s usual ruckus-opener tracks. The Rolling Stones - Tattoo You (RL) [24-96 PBTHAL VINYL RIP 201. Continue this thread. com SustaiNet is committed to offering its customers full support for all our products. It is a thoughtful. Huge Thanks to the Original Releaser! Complete Box Set Released as WPCR-13142/53 Led Zeppelin The Definitive Box Set - 2008 Japanese exclusive strictly limited edition digitally remastered 12-disc SHM-CD album set (8 single CDs and 2 double sets), comprising the entire LP output from the legendary rockers, from the eponymous 1969 debut through to 1982's posthumous "Coda"; each disc is superbly. The Beatles in mono: This is how most listeners first heard the group in the 1960s, when mono was the predominant audio format. 88 MiB, ULed by thedregs222: 0: 1: Audio (). In 1997 Cheap Trick was recording some stuff with Albini, and they got to talking about how the band felt like IN COLOR's original recording fell short, in their minds, for whatever reason. The original mix for We Live for Love can be found on youtube. 1975 - Sabotage [US Vinyl 24-96 FLAC][Pbthal Answer]/03 - Symptom Of The Universe. I am only on APL and I can tell you I hate it. Suele considerarse uno de los grupos precursores del power pop. FUN HOUSE is from PBTHAL, who makes the best needledrops on the internet. REM PBTHAL Vinyl Rip 2019 PERFORMER "AC/DC" TITLE "Highway To Hell" FILE "01 - Highway To Hell. Ironically you can buy the "remastered" version aka "horse shit" version right here from iTunes to the right of this message. The Beatles_The Lost Album (Two and a Half)_2019_12CD_MP3. Join Facebook to connect with Pbthal Rips and others you may know. Elliott Smith - Live at Umbra Penumbra, Portland, OR - September 17, 1994 [Kill Rock Stars]. 9 MB 1969 - The Soft Parade [US Vinyl 24-96 FLAC][Pbthal Answer]/09 - The Soft Parade. Free for All!. Vinyl, maybe it was for the sake of removing sibilance, but the dynamics seem sucked out. jorge ben – ponta de lanca africano (umbabarauma) 05. PBTHAL ARCHIVES (Vinyl Done Right) 10+ years ago the journey began here on blogspot so what better way to celebrate than to assemble all the eras of my work in one easy to read blog. Up until 1968, each Beatles album was given a unique mono and stereo mix, but the group always regarded the mono as primary. What marketing strategies does Fulicilian use? Get traffic statistics, SEO keyword opportunities, audience insights, and competitive analytics for Fulicilian. View James Cruz's business profile as Owner and Mastering Engineer at Zeitgeist Sound Studios. A1 Deathrider Written-By – Benante*, Spitz*, Lilker*, Turbin*, Rosenfeld* 3:30 A2 Metal Thrashing Mad Written-By – Benante*, Spitz*, Lilker*, Turbin*, Rosenfeld* 2:39 A3 I'm Eighteen Written-By – Alice Cooper (2), Dennis Dunaway, Glen Buxton, M. Muy influenciada por el pop de años 60, y muy especialmente por grupos como The Beatles, The Byrds, The Kinks, The Zombies, Badfinger, The Who, Todd Rundgren, Moby Grape, The Beach Boys y Free, la música de Big Star es un pop lírico, enérgico y a. I am blown away by your most recent Rolling Stones' TSMR offering. Download The Traveling Wilburys Collection (3LP Rhino Box Set)(Vinyl Rip)(24 96) Torrents from Our Search Results, GET The Traveling Wilburys Collection (3LP Rhino Box Set)(Vinyl Rip)(24 96) Torrent or Magnet via Bittorrent clients. Pbthal, VERY GOOD. The singles you have posted on this blog are a collector´s dream! Rock on tambler October 12, 2012 at 10:25 PM and from what I can tell, pbthal's sounds a bit. It is the first studio album since 1988's Ram It Down to be produced by Tom Allom, and the first one with Andy Sneap as co-producer. The Doors - L. FUN HOUSE is recorded at 192khz off a first pressing from Columbia. Blogger is a free blog publishing tool from Google for easily sharing your thoughts with the world. Does anyone know if pbthal has: The Best Of Buddy Holly, and 20 Golden Hits By Buddy Holly. Can 1969 Monster Movie [German PBTHAL Vinyl Rip. kauai real estate blog lynda gill fm 105. Dire Straits - Communique (PBTHAL Vinyl Rip 2012)(Hi-Rez)/08 - Single-Handed Sailor. flac" WAVE TRACK 03 AUDIO TITLE "Walk All Over You" INDEX. torrentdownload. pbthal archives 10+ years ago the journey began here on blogspot so what better way to celebrate than to assemble all the eras of my work in one easy to read blog. Sammy Hagar - Three Lock Box Answer To The Diminishing Returns Sugarcube SC-2 {Technical Details} VPI Scoutmaster with dual belt driven single flywheel motor on Herbie's Tenderfeet Trans-Fi Terminator T3 Pro With Tomahawk Armwand (4N Silver Shielded Wire) Audio-Technica VM150MLX Frankencart Phoenix Engineering Eagle Phoenix Engineering RoadRunner Gingko Cloud 12A Vibration Control Platform. 08 MiB, ULed by Stangman1234: 0: 1: Audio. Find contact's direct phone number, email address, work history, and more. Pbthal - cs. Nick Vivid's Vinyl Lounge. popular-all-random-users | AskReddit-pics-tifu-funny-worldnews-gaming -blog; more » reddit. U2 – War 1983 (UK) 24bit 96kHz PBTHAL 2014 Vinyl LOSSLESS FLAC VA – Geffen Rarities Vol. U2 - War 1983 (UK) 24bit 96kHz PBTHAL 2014 Vinyl LOSSLESS FLAC VA - Geffen Rarities Vol. gif I can accomodate you on both levelsif you check my profile. The Internet's Busiest Music Nerd. it Pbthal Pbthal. com SustaiNet is committed to offering its customers full support for all our products. it Pbthal. While “pbthal’s” table of choice is the VPI Scoutmaster (US$2,400) with thread driven single flywheel motor and Trans-Fi Terminator T3 Pro With Tomahawk Armwand. [락] Slayer - Reign In Blood (German US) [PBTHAL Frankencart]. pbthal does some great rips, but between changing his site every 6mon between private and public and re-ripping all the Foreigner albums every time he has a new set up, I stopped following him. Amplitube 3 keygen download on FileTram. 6 3 Cracked deb RapidShareMix Search for Shared Files. Pbthal Daisy Holey amplitube 3 crack – shared files results. 1967b - Strange Days [Elektra Monarch Press Vinyl 24-96 FLAC][Pbthal 2012 Dec. https://www. Also, would like to thank Pbthal for his amazing work! Reply Delete. Geplaatst door Prof. Woman (US) [pbthal sussorro] seeders: 1 leechers: 0 updated: 1 year ago 12/03/2019 10:06:32 ( 1 year ago). He did rips that are amazing. Free online heuristic URL scanning and malware detection. Durante os anos 70 conheci uma revista chamada Pop, que batizei de Pop Alemã, uma vez que era de origem germânica, eu não entendia o que estava escrito na sua grande maioria, mas foi ali que conheci os grupos que hoje publico aqui no blog.
© 2006-2020